Crypta band - Sepultura | S logo | mini patch. Rated 5.00 out of 5. € 1,49 Add to cart. You're viewing: Crypta | logo | patch €2,99. Add to cart. High quality Crypta | logo | patch, made to last! | International shipping from the Netherlands and Germany | Safe payment | Great prices.

 
Crypta bandCrypta band - “Echoes of the Soul” is the debut album from the Brazilian/Dutch Death Metal quartet CRYPTA, released on June 11th, 2021, through Napalm Records. ... (just like the band labels itself) albeit ...

Aug 3, 2023 · Crypta is able to blend a clear love for classic death metal with a modern sound. This band reminds me of death metal's glory days in the late '80s but in a way that isn't just all about nostalgia. Brazilian metal band Crypta discuss surviving Illinois tornado ahead of Palladium show. When Brazilian death metal quartet Crypta set out to tour the United States with headliners Morbid Angel, none of its members could have predicted that their show at the Apollo Theater in Belvidere, Illinois, would end in a narrow escape from a natural ...CRYPTA. 156,968 likes · 2,487 talking about this. 항햗햆햟햎햑햎햆햓 핯햊햆햙햍 핸햊햙햆햑Mar 20, 2021 · Crypta is a talented and ferocious new death metal band with thrash elements consisting of vocalist/bassist Fernanda Lira and drummer Luana Dametto (both ex-Nervosa) alongside guitarists Sonia Anubis (Cobra Spell, ex-Burning Witches) and Tainá Bergamaschi (ex-Hagbard). Guitarist Jéssica di Falchi is the new official guitarist for Brazilian metal band Crypta. In May 2022, she joined the band as a “sidewoman,” to carry out the “Echoes Over Latin America Tour” and “Echoes Over Europe Summer Tour,” replacing Sonia Anubis. “I am extremely grateful and happy to be a part of Crypta!” di Falchi said.Crypta discography (misc) Starvation (2021) Crypta discography (all) Echoes of the Soul (2021) Shades of Sorrow (2023) > I Resign Crypta. Type: Single Release date: April 1st, 2022 Catalog ID: N/A Label: Napalm Records ... Shadow Within (live) 04:43 Show lyrics (loading lyrics...) 08:36 : Complete lineup; Band members; Other staff; Band … The Cryptkeeper Five (sometimes referred to as CK5) are an American punk rock / rock and roll [3] band formed in 1997 in Trenton, New Jersey . History[edit] Vocalist Johnny Ott, guitarist Jimmy Ray, and drummer D.T. Graves (on and off) have been in CK5 since its 1997 origin, with many different supporting players over the years. canal feito com muito carinho por fÃs para todos nÓs que somos fÃs da banda crypta Band Members: Jéssica di Falchi, Luana Dametto, Fernanda Lira, Tainá Bergamaschi. Find tickets for Crypta concerts near you. Browse 2024 tour dates, venue details, concert reviews, photos, and more at Bandsintown. Crypta is a talented and ferocious new death metal band with thrash elements consisting of vocalist/bassist Fernanda Lira and drummer Luana Dametto (both ex-Nervosa) alongside guitarists Sonia Anubis (Cobra Spell, ex-Burning Witches) and Tainá Bergamaschi (ex-Hagbard).Crypta - Shades of Sorrow 53 0 5982. Crypta - Discography (2021 - 2023) (Lossless) 13 0 543. Crypta - Live at Porão do Rock Festival 2021 6 0 739. Crypta - Echoes Of The Soul (Lossless) 4 0 561. Crypta - Echoes Of The Soul (HQ) (Lossless) 3 1 282The band "Crypta" was the only group who performed that night before the storms came through. Falling debris killed a man who the band met before the show.Info For Bands; FAQs; Refund Policy; Contact; Collection: Crypta 2 products. Crypta - Echoes Of The Soul. Crypta - Echoes Of The Soul. Regular price $9.99 USD Sale price $9.99 USD Regular price. Unit price / per . Sale Sold out. Crypta - Shades of Sorrow. Crypta - Shades of Sorrow. Regular price $10.99 USD Sale price $10.99 USD Regular …Crypta Band. A range of t-shirts sold by independent artists featuring a huge variety of original designs in sizes XS-5XL; availability depending on style. Choose your favorite Crypta Band-inspired shirt style: v-neck or crew neckline; short, baseball or long sleeve; slim or relaxed fit; light, mid, or heavy fabric weight.Aug 29, 2023 · Order HERE. World-renowned Brazilian death metal unit CRYPTA are thrilled to announce their first ever US headlining tour! The “Shades Of Sorrow Over North America 2024” tour kicks off in San Juan, Puerto Rico on January 27, visiting several major cities along the central and western United States before coming to an end on March 2 in ... May 31, 2023 · Brazilian death metal band Crypta will release its second album, “Shades of Sorrow,” on Aug. 4, 2023, via Napalm Records. Pre-orders are open here. The band also has unveiled the record’s first single, “Lord of Ruins,” and the music video can be seen below. “’Lord of Ruins’ was our pick for a first single ‘cause it combines ... Unite al canal para apoyar el contenido y acceder a sus beneficios:https://www.youtube.com/channel/UCaVbdN5VLUJDt1OI5FB2Ddg/joinSEGUÍ A SEASON OF MIST ENhttp...I Resign (2022) [Single] by Crypta. Labels: Napalm Records. Genres: Death Metal. Songs: I Resign, Shadow Within (live). Members: Fernanda Lira, Sonia Anubis, Tainá ...Order "Echoes Of The Soul" here: https://smarturl.it/EchoesOfTheSoulout June 11th Artwork/photo: NecrosHornsLyric Video: Marcelo Silva - Ms Motion GraphicsBa...Crypta, Houston, Texas. 704 likes · 9 talking about this. Crypta is a metal band from Houston Texas members are Gilbert (Casta)neda, Adrian Paramo, Ruben Graves. messege us for booking! Crypta | Houston TXCrypta is an all-women death metal band from São Paulo, Brazil. The band, formed in 2019, includes former Nervosa singer Fernanda Lira and drummer Luana Dametto as well as guitarists Tainá Bergamaschi and Jéssica di Falchi. Signed to Napalm Records, Crypta’s 2021 debut album, Echoes of the Soul, featured singles like “From the Ashes,” …Crypta discography (all) Starvation (2021) I Resign (2022) > Echoes of the Soul Crypta. Type: Full-length Release date: June 11th, 2021 Catalog ID: NPR990JC, NPR990CD ... Band members Luana Dametto: Drums : Tainá Bergamaschi: Guitars (lead) Sonia Anubis: Guitars (rhythm, lead) Fernanda Lira: Vocals, Bass : Miscellaneous staff …Nervosa. 37,647 listeners. thrash metal. female fronted metal. There are at least two artists which use the name Nervosa 1. A Rock Band from the United Kingdom 2. Nervosa is a thrash/death metal band originally from São Paulo, Brazil. 1. NERVOSA have been on the scene in Cornwall for over 14 years, … read more.CRYPTA's Fernanda Lira is taking you on a tour of the Family Mob Studio, where the band has spent the past weeks recording their debut album! Check out this ...Get all 3 Crypta releases available on Bandcamp and save 20%.. Includes unlimited streaming via the free Bandcamp app, plus high-quality downloads of Shades of Sorrow, I Resign, and Echoes Of The Soul.CRYPTA's Fernanda Lira is taking you on a tour of the Family Mob Studio, where the band has spent the past weeks recording their debut album! Check out this ... About Crypta. Crypta is a Brazilian/Dutch death metal band, formed in 2019. Around May 2019, Luana Dametto and Fernanda Lira founded Crypta, firstly intended to be a side project where they could write death metal. Later that year, in June, the Dutch Sonia Anubis was invited to join the project as one of their guitarists. Crypta discography (all) Starvation (2021) I Resign (2022) > Echoes of the Soul Crypta. Type: Full-length Release date: June 11th, 2021 Catalog ID: NPR990JC, NPR990CD ... Band members Luana Dametto: Drums : Tainá Bergamaschi: Guitars (lead) Sonia Anubis: Guitars (rhythm, lead) Fernanda Lira: Vocals, Bass : Miscellaneous staff …Bassist/vocalist Fernanda Lira said the band chose this track as one of the album’s singles because of its ability to highlight a different facet of the band’s overall sound. ... CRYPTA Live 2023 – ECHOES OVER EUROPE PART 2: 27.08.23 SI – Tolmin / Tolminator Metal Fest. CRYPTA opening for Ghost: 20.09.2023 BR – São Paulo / …CRYPTA: il video della nuova “Trial Of Traitors”. comments are off for this post. 31. Mag 2023. CRYPTA: i dettagli del nuovo album “Shades of Sorrow” e il video del primo singolo “Lord of Ruins”. comments are off for this post. 22. Mag 2023. PADOVA METAL FEST 2023: la line-up completa della X edizione.Brazilian death metal outfit Crypta smashed Wacken with old school tunes and an all female line up!Watch the full show at Magenta Musik: https://www.magentam...Both back up bands were Amazing! Thank you Nile and Crypta for a killer performance. I truly had the Best time. Met allot of cool people at the show. If you ever get the chance go see Crypta is a bucket list to do! Mesa Patios, AZ @ The Underground. Easily follow all your favorite artists by syncing your music. Sync Music. Share Event. …Brazilian death metal outfit Crypta smashed Wacken with old school tunes and an all female line up!Watch the full show at Magenta Musik: https://www.magentam...Crypta (2) More images. Profile: Brazilian death metal band formed in June 2019 by ex- Nervosa (2) musicians. Lineup: Fernanda Lira - bass, vocals. Tainá Bergamaschi - guitars. Jéssica di Falchi - guitars. Luana Dametto - drums.Pre-order "Echoes Of The Soul" here: https://smarturl.it/EchoesOfTheSoulout June 11th Crypta online:Facebook: https://www.facebook.com/cryptadeathInstagram: ... After coming to life in 2019, CRYPTA signed with Napalm Records and released their much-anticipated debut album, Echoes of the Soul, on June 11th, 2021. The band announced the arrival of their ... Brazilian band Crypta has been acclaimed worldwide for their extreme & innovative contributions to death metal. Meet Crypta, the Brazilian Band Taking Death …New lead guitarist Larissa fairly blazes and the whole band has dialed its enthusiasm for all things metal up to EPIC. The Witch of the North is more melodic and varied than Nervosa’s and Crypta ...#Crypta #PoraoDoRockPrimeira apresentação ao vivo da banda Crypta.Setlist:00:11 - Intro00:32 - Death Arcana05:25 - Possessed09:12 - Fernanda Lira10:05 - Kal... The Cryptkeeper Five (sometimes referred to as CK5) are an American punk rock / rock and roll [3] band formed in 1997 in Trenton, New Jersey . History[edit] Vocalist Johnny Ott, guitarist Jimmy Ray, and drummer D.T. Graves (on and off) have been in CK5 since its 1997 origin, with many different supporting players over the years. “Echoes of the Soul” is the debut album from the Brazilian/Dutch Death Metal quartet CRYPTA, released on June 11th, 2021, through Napalm Records. ... (just like the band labels itself) albeit ...Crypta (2) More images. Profile: Brazilian death metal band formed in June 2019 by ex- Nervosa (2) musicians. Lineup: Fernanda Lira - bass, vocals. Tainá Bergamaschi - guitars. Jéssica di Falchi - guitars. Luana Dametto - drums.Death metal unit CRYPTA reveals new video for an intense live version of “Shadow Within” and celebrate the release of their reissued debut album “Echoes Of T...Crypta - Encyclopaedia Metallum: The Metal Archives. Buy their stuff. Search on eBay. Learn more. Crypta. Country of origin: Brazil. Location: São Paulo, São …canal feito com muito carinho por fÃs para todos nÓs que somos fÃs da banda cryptaCRYPTA - BR Crypta is a Brazilian death metal band, founded in 2019, by Luana Dametto and Fernanda Lira, and officially announced in May 2020. On guitars, Tainá Bergamaschi and Jéssica di Falchi complete the current line-up. The four-piece is signed to Austrian label Napalm Records, through which their debut album “Echoes of the Soul” was ...Crypta discography and songs: Music profile for Crypta, formed June 2019. Genres: Death Metal. Albums include Shades of Sorrow, Echoes of the Soul, and Lord of Ruins. ... Top #10 Female Fronted Metal Bands. Harakant. seen live. foolsleave. Artists/Bands I Have Seen Live. Harakant. ALL the Artists I Enjoy. yadira63. Concerts …Crypta (2) Mais imagens. Perfil: Brazilian death metal band formed in June 2019 by ex- Nervosa (2) musicians. Lineup: Fernanda Lira - bass, vocals. Tainá Bergamaschi - guitars. Jéssica di Falchi - guitars. Luana Dametto - drums.Jul 16, 2023 · ECHOES OVER LATIN AMERICA TOURCrypta live performance at Vendetta Metal Fest June 26th 2022, Cuiabá- MT, Brazil.Produced by Vendetta Prod.Directed by Joe Fag... Crypta. Four women from Brazil join forces in a death metal band that is highly influenced by the old school subgenres of this style: CRYPTA.Fernanda Lira (vocals & bass) and Luana Dametto (drums), both ex-members of Brazilian thrash metal band NERVOSA, Jéssica Falchi (lead guitars) who worked out her stage presence in METALLICA and IRON MAIDEN cover bands, and Tainá Bergamaschi (guitars ... CRYPTA: il video della nuova “Trial Of Traitors”. comments are off for this post. 31. Mag 2023. CRYPTA: i dettagli del nuovo album “Shades of Sorrow” e il video del primo singolo “Lord of Ruins”. comments are off for this post. 22. Mag 2023. PADOVA METAL FEST 2023: la line-up completa della X edizione.May 20, 2020 · ~ CRYPTA // NEW BAND ANNOUNCEMENT ~ Born in June 2019, CRYPTA is a Brazilian/Dutch Death Metal four-piece, influenced... Posted by CRYPTA on Wednesday, May 20, 2020. Find more on Nervosa. Jul 16, 2023 · ECHOES OVER LATIN AMERICA TOURCrypta live performance at Vendetta Metal Fest June 26th 2022, Cuiabá- MT, Brazil.Produced by Vendetta Prod.Directed by Joe Fag... Bassist/vocalist Fernanda Lira said the band chose this track as one of the album’s singles because of its ability to highlight a different facet of the band’s overall sound. ... CRYPTA Live 2023 – ECHOES OVER EUROPE PART 2: 27.08.23 SI – Tolmin / Tolminator Metal Fest. CRYPTA opening for Ghost: 20.09.2023 BR – São Paulo / …Brazilian death metal outfit CRYPTA are preparing to unleash their second beast of an album, Shades of Sorrow, on August 4, 2023 via Napalm Records! Formed in 2019 by … bottom of page ... Mar 20, 2021 · Crypta is a talented and ferocious new death metal band with thrash elements consisting of vocalist/bassist Fernanda Lira and drummer Luana Dametto (both ex-Nervosa) alongside guitarists Sonia Anubis (Cobra Spell, ex-Burning Witches) and Tainá Bergamaschi (ex-Hagbard). Crypta When Crypta formed in 2019, it was as a death metal side- project for then-Nervosa members Fernanda Lira [vocals/bass] and Luana Dametto [drums]. But within a year the band had taken on a life of its own, the pair simultaneously leaving the thrash group after “growing apart” from the band’s founder Prika Amaral after playing …I Resign (2022) [Single] by Crypta. Labels: Napalm Records. Genres: Death Metal. Songs: I Resign, Shadow Within (live). Members: Fernanda Lira, Sonia Anubis, Tainá ...text Eli Enis. June 10, 2021. Crypta have only been around for two years, but you wouldn't know it if you heard them. The Brazillian/Dutch quartet features former members of the Brazillian thrash titans Nervosa, vocalist/bassist Fernanda Lira and drummer Luana Dametto, as well as the formidable guitarists Sonia Anubis and Tainá Bergamaschi. 271K Followers, 6 Following, 881 Posts - See Instagram photos and videos from CRYPTA (@cryptadeath) Crypta is bringing their Brazilian death metal to the States this month. The band’s highly-anticipated Shades of Sorrow Over North America Tour will embark in San Juan, Puerto Rico, on Jan. 27 ...Brazilian band Crypta has been acclaimed worldwide for their extreme & innovative contributions to death metal. Meet Crypta, the Brazilian Band Taking Death …Filename C:\darkbrides\Crypta - Shades of Sorrow.wav Peak level 96.5 % Extraction speed 7.5 X Range quality 100.0 % Test CRC 2874B29F Copy CRC 2874B29F Copy OK No errors occurred AccurateRip summary Track 1 cannot be verified as accurate (confidence 8) [FEF0D8D8], AccurateRip returned [25C4B7A8] (AR v2)Aug 3, 2023 · Crypta is able to blend a clear love for classic death metal with a modern sound. This band reminds me of death metal's glory days in the late '80s but in a way that isn't just all about nostalgia. Nervosa. 37,647 listeners. thrash metal. female fronted metal. There are at least two artists which use the name Nervosa 1. A Rock Band from the United Kingdom 2. Nervosa is a thrash/death metal band originally from São Paulo, Brazil. 1. NERVOSA have been on the scene in Cornwall for over 14 years, … read more.Feb 9, 2021 · CRYPTA's Fernanda Lira is taking you on a tour of the Family Mob Studio, where the band has spent the past weeks recording their debut album! Check out this ... CRYPTA - Trial Of Traitors (Official Video) | Napalm Records. Napalm Records. 2.32M subscribers. Subscribe. 16K. 242K views 3 months ago. New Album, …Sep 27, 2022 · Country of origin: Netherlands Location: Helden, Limburg Status: Active Formed in: N/A Genre: Death Metal Themes: N/A Current label: Unsigned/independent Years active: Crypta discography (misc) Starvation (2021) Crypta discography (all) Echoes of the Soul (2021) Shades of Sorrow (2023) > I Resign Crypta. Type: Single Release date: April 1st, 2022 Catalog ID: N/A Label: Napalm Records ... Shadow Within (live) 04:43 Show lyrics (loading lyrics...) 08:36 : Complete lineup; Band members; Other staff; Band …Stockholm, Sweden. Tickets. MAR. 30. Plan B. Malmö, Sweden. Tickets. MAR. 31. Musikens Hus. Göteborg, Sweden. Tickets. APR. 01. The Cryptkeeper Five (sometimes referred to as CK5) are an American punk rock / rock and roll [3] band formed in 1997 in Trenton, New Jersey . History[edit] Vocalist Johnny Ott, guitarist Jimmy Ray, and drummer D.T. Graves (on and off) have been in CK5 since its 1997 origin, with many different supporting players over the years. News, Tour dates. Brazilian death metal unit Crypta will embark on its first-ever U.S. headline tour in early 2024. The Shades of Sorrow Over North America 2024 tour will kick off Jan. 27 in San Juan, Puerto Rico, and visit several major cities along the central and western United States before coming to an end March 2 in Seattle, Washington.Our guitarist Tainá Bergamaschi playing the song 'Death Arcana' from our latest album 'Echoes of The Soul'.→ Order our album 'Echoes of the Soul': https://sm...Our guitarist Tainá Bergamaschi showing her top 5 riffs & solos of our latest album 'Echoes of The Soul'.→ Order our album 'Echoes of the Soul': https://smar...Death metal unit CRYPTA reveals new video for an intense live version of “Shadow Within” and celebrate the release of their reissued debut album “Echoes Of T... About Crypta. Crypta is a Brazilian/Dutch death metal band, formed in 2019. Around May 2019, Luana Dametto and Fernanda Lira founded Crypta, firstly intended to be a side project where they could write death metal. Later that year, in June, the Dutch Sonia Anubis was invited to join the project as one of their guitarists. Really None stop. Whole band did a short meet and greet after the show. Was short because next show next day is a 12 hour drive away. Austin, TX @ Come and Take It Live. Easily follow all your favorite artists by syncing your music. Sync Music. Share Event. Crypta Biography. Born in June 2019, CRYPTA is a Brazilian Metal four-piece, …Crypta (2) More images. Profile: Brazilian death metal band formed in June 2019 by ex- Nervosa (2) musicians. Lineup: Fernanda Lira - bass, vocals. Tainá Bergamaschi - guitars. Jéssica di Falchi - guitars. Luana Dametto - drums.CryptaEchoes of the Soul 2021 Limited Edition T-Shirt Men Crypta band Licensed Merchandise100% Cotton T-ShirtCrypta is a Brazilian/Dutch death metal band formed in 2019 by Nervosa members Fernanda Lira and Luana Dametto, along with Burning Witches guitarist Sonia “Anubis” Nusselder and Hagbard guitarist Tainá Bergamaschi. In 2021 the …CRYPTA's Fernanda Lira is taking you on a tour of the Family Mob Studio, where the band has spent the past weeks recording their debut album! Check out this ...Crypta returns with their highly anticipated second studio album, “Shades Of Sorrow,” following the success of their critically acclaimed debut, “Echoes Of The Soul.”. This time, the band introduces a lineup change, with former guitarist Sonia Anubis stepping out, making way for the talented new guitarist, Jéssica di Falchi.The group’s …“Echoes of the Soul” is the debut album from the Brazilian/Dutch Death Metal quartet CRYPTA, released on June 11th, 2021, through Napalm Records. ... (just like the band labels itself) albeit ...Mar 2, 2024 · Rainbow T-Shirt. $30.0 USD. Circle Beanie. $20.0 USD. Discover more artists to follow & sync your music. Find your faves. Crypta is coming to Dante's in Portland on Mar 01, 2024. Find tickets and get exclusive concert information, all at Bandsintown. Aug 4, 2023 · The TL;DR of this review is definitely that if you’ve been sleeping on Crypta up until now because you think of them as just another throwback worship band, sleep no more. The band obviously have so much more than that to offer, and they’re truly showcasing it here. Crypta’s Shades of Sorrow is out today via Napalm Records. Crypta is a Brazilian/Dutch death metal band, formed in 2019. Around May 2019, Luana Dametto and Fernanda Lira founded Crypta, firstly intended to be a side project where they could write death metal. Later that year, in June, the Dutch Sonia Anubis was invited to join the project as one of their guitarists. With a provisional trio line-up, the ... Sonia Anubis. Página oficial. www .cryptaofficial .com. Crypta é uma banda brasileira de death metal formada em São Paulo, no ano de 2019 . Conta com as ex-integrantes da banda de thrash metal Nervosa Fernanda Lira ( baixo e vocal) e Luana Dametto ( bateria ), e as guitarristas Tainá Bergamaschi e Jéssica di Falchi. Portsmouth humane society, S cape, Matthews pizza, Walmart hope mills nc, Tim wendelboe, Lost trail ski area, Memphis orpheum, Runnings lockport, Jump send, Quirk ford quincy ma, Wrenchapart, Portland fan expo, Woof gang grooming, Purple hawk

Find Crypta tour dates in Ecuador for 2024 & 2025 , concert details and compare prices. Buy verified tickets for the concerts of Crypta in Ecuador. Find Crypta tour dates in Ecuador for 2024 & 2025 , concert details and compare prices. ... Bands by countries. → International. → Crypta (all gigs) Crypta - gigs in Ecuador. on tour. Death Metal. Death …. Mission funeral home

Crypta banddesert mountain

CRYPTA - Lord Of Ruins (Official Video) | Napalm Records. OFFICIAL WEBSITE. YOUTUBE (playthroughs & more) CRYPTA ON SPOTIFY. FOLLOW US ON INSTAGRAM. FACEBOOK. Create your Linktree. View cryptaofficial’s Linktree. Listen to their music on YouTube, Spotify here. Biography. Luana Dametto is a drummer from south Brazil. She began to dedicate herself to music and learn drums by the age of 12, until later on, at the age of 16, she joined her first band, Apophizys, where she discovered her passion and preference for Death Metal. With this band, she released her first full-length in 2015, called “Into the ...Mar 20, 2021 · Crypta is a talented and ferocious new death metal band with thrash elements consisting of vocalist/bassist Fernanda Lira and drummer Luana Dametto (both ex-Nervosa) alongside guitarists Sonia Anubis (Cobra Spell, ex-Burning Witches) and Tainá Bergamaschi (ex-Hagbard). PRE ORDER MY NEW ALBUM BURIED ALIVE HERE: https://distrokid.com/hyperfollow/crypt1/buried-alive-2Stream "Bad Friend" here: https://distrokid.com/hyperfollow/... Crypta. Four women from Brazil join forces in a death metal band that is highly influenced by the old school subgenres of this style: CRYPTA.Fernanda Lira (vocals & bass) and Luana Dametto (drums), both ex-members of Brazilian thrash metal band NERVOSA, Jéssica Falchi (lead guitars) who worked out her stage presence in METALLICA and IRON MAIDEN cover bands, and Tainá Bergamaschi (guitars ... blackened thrash metal death metal death thrash metal metal thrash metal blackened thrash death metal death thrash thrash thrash metal Brazil. Shades of Sorrow by Crypta, released 04 August 2023 1. The Aftermath 2. Dark Clouds 3. Poisonous Apathy 4. The Outsider 5. Stronghold 6. The Other Side of Anger 7. The Limbo 8. Manuel speaks with Fernanda, Luana, Jessica and Tainá from the brazilian death metal band Crypta, after their very first Wacken Open Air show about touring a... Crypta is a Brazilian death metal band formed in 2019 by former NERVOSA members and featuring guitarists from other bands. The band's second album, Shades of Sorrow, will be released on August 4, 2023 and they have upcoming live dates in Brazil and Mexico. CRYPTA - Trial Of Traitors (Official Video) | Napalm Records. Napalm Records. 2.32M subscribers. Subscribe. 16K. 242K views 3 months ago. New Album, …CRYPTA - Trial Of Traitors (Official Video) | Napalm Records. Napalm Records. 2.32M subscribers. Subscribe. 16K. 242K views 3 months ago. New Album, …Games, Brrraaains & A Head-Banging Life had the pleasure of speaking with drummer, Luana Dametto of death metal band, Crypta. Their debut album, Echoes of th...Brazilian band Crypta has been acclaimed worldwide for their extreme & innovative contributions to death metal. Meet Crypta, the Brazilian Band Taking Death …12/02/22 tem Scena Fest em SP. Ingressos:https://www.clubedoingresso.com/evento/scenafest**** Por favor, não faça o download indevido do vídeo. Ajude a forta...Pre-order "Echoes Of The Soul" here: https://smarturl.it/EchoesOfTheSoulout June 11th Crypta online:Facebook: https://www.facebook.com/cryptadeathInstagram: ...Crypta is a Brazilian Death Metal Band.Crypta is a Brazilian/Dutch death metal band, formed in 2019. Around May 2019, Luana Dametto and Fernanda Lira founded Crypta, firstly intended to be a side project where they could write death metal. Later that year, in June, the Dutch Sonia Anubis was invited to join the project as one of their guitarists. With a provisional trio line-up, the ...Crypta is a Brazilian Death Metal Band.I Resign by Crypta, released 03 March 2022 1. I Resign 2. Shadow Within (Live) After death metal unit CRYPTA dropped one of the most anticipated metal debuts in 2021 with Echoes Of The Soul, hitting the GER album charts at #55, the US Current Hard Music Albums at #15 and CAN Hard Music Albums at #13, amongst others, the high …Initially originated from the line-ups of well known bands (such as Nervosa or Burning Witches) CRYPTA is an all-female Brazilian/Dutch Death Metal band formed in 2020, …Crypta - Shadows of Sorrow - 95%. Orbitball, August 19th, 2023. Written based on this version: 2023, Digital, Napalm Records (Bandcamp) Next. Last. This vocalist sounds like a female version of Dani Filth. There’s actually more than one tone of vocals. It’s mainly guttural throat with variations. blackened thrash metal death metal death thrash metal metal thrash metal blackened thrash death metal death thrash thrash thrash metal Brazil. Shades of Sorrow by Crypta, released 04 August 2023 1. The Aftermath 2. Dark Clouds 3. Poisonous Apathy 4. The Outsider 5. Stronghold 6. The Other Side of Anger 7. The Limbo 8. Crypta. Four women from Brazil join forces in a death metal band that is highly influenced by the old school subgenres of this style: CRYPTA.Fernanda Lira (vocals & bass) and Luana Dametto (drums), both ex-members of Brazilian thrash metal band NERVOSA, Jéssica Falchi (lead guitars) who worked out her stage presence in METALLICA and IRON MAIDEN cover bands, and Tainá Bergamaschi (guitars ... Filename C:\darkbrides\Crypta - Shades of Sorrow.wav Peak level 96.5 % Extraction speed 7.5 X Range quality 100.0 % Test CRC 2874B29F Copy CRC 2874B29F Copy OK No errors occurred AccurateRip summary Track 1 cannot be verified as accurate (confidence 8) [FEF0D8D8], AccurateRip returned [25C4B7A8] (AR v2)Recenze: CRYPTA – Echoes of the Soul /2021/ Napalm Records. Album má solidní odpich a energii, dostatek chytlavých nápadů a příjemné napětí, což jej s jistotou drží v bezpečné vzdálenosti od nevýrazné bažiny jednak beztvarého podprůměru, tak i lákavých svodů prefabrikovaného konzumu. !TOOH! Avidity For... Eradication ...Crypta (2) Mais imagens. Perfil: Brazilian death metal band formed in June 2019 by ex- Nervosa (2) musicians. Lineup: Fernanda Lira - bass, vocals. Tainá Bergamaschi - guitars. Jéssica di Falchi - guitars. Luana Dametto - drums.Crypta Guitar Tabs with free online tab player. One accurate tab per song. Huge selection of 800,000 tabs. No abusive adsAug 4, 2023 · The TL;DR of this review is definitely that if you’ve been sleeping on Crypta up until now because you think of them as just another throwback worship band, sleep no more. The band obviously have so much more than that to offer, and they’re truly showcasing it here. Crypta’s Shades of Sorrow is out today via Napalm Records. Crypta is a Brazilian death metal band, founded in 2019, by Luana Dametto and Fernanda Lira, and officially announced in May 2020. On guitars, Tainá Bergamaschi and Jéssica di Falchi complete the current line-up. The four-piece is signed to Austrian label Napalm Records, through which their debut album “Echoes of the Soul” was released ...canal feito com muito carinho por fÃs para todos nÓs que somos fÃs da banda crypta 13th Floor Entertainment Presents Crypta, Misanthropic, Kenopsia Wednesday, Feb 21, 2024, All Ages, 7PM The Nile Underground 105 W. Main Street, Mesa, AZ 85201 Crypta is a talented and ferocious new death metal band with thrash elements consisting of vocalist/bassist Fernanda Lira and drummer Luana Dametto (both ex-Nervosa) alongside guitarists Sonia Anubis (Cobra Spell, ex-Burning Witches) and Tainá Bergamaschi (ex-Hagbard).Manuel speaks with Fernanda, Luana, Jessica and Tainá from the brazilian death metal band Crypta, after their very first Wacken Open Air show about touring a...Former Nervosa members Fernanda Lira and Luana Dametto announced today via their social media the new project they are in: Crypta, a Death Metal quartet which was born in June 2019.. CRYPTA are a Brazilian/Dutch Death Metal four-piece, influenced by the old school sub-genres of the style. The band’s lineup include Fernanda Lira …Brazilian band Crypta has been acclaimed worldwide for their extreme & innovative contributions to death metal. Meet Crypta, the Brazilian Band Taking Death …Crypta is bringing their Brazilian death metal to the States this month. The band’s highly-anticipated Shades of Sorrow Over North America Tour will embark in San Juan, Puerto Rico, on Jan. 27 ... After coming to life in 2019, CRYPTA signed with Napalm Records and released their much-anticipated debut album, Echoes of the Soul, on June 11th, 2021. The band announced the arrival of their ... CRYPTA - BR Crypta is a Brazilian death metal band, founded in 2019, by Luana Dametto and Fernanda Lira, and officially announced in May 2020. On guitars, Tainá Bergamaschi and Jéssica di Falchi complete the current line-up. The four-piece is signed to Austrian label Napalm Records, through which their debut album “Echoes of the Soul” was ...Aug 4, 2023 · The TL;DR of this review is definitely that if you’ve been sleeping on Crypta up until now because you think of them as just another throwback worship band, sleep no more. The band obviously have so much more than that to offer, and they’re truly showcasing it here. Crypta’s Shades of Sorrow is out today via Napalm Records. Find Crypta tour dates in Ecuador for 2024 & 2025 , concert details and compare prices. Buy verified tickets for the concerts of Crypta in Ecuador. Find Crypta tour dates in Ecuador for 2024 & 2025 , concert details and compare prices. ... Bands by countries. → International. → Crypta (all gigs) Crypta - gigs in Ecuador. on tour. Death Metal. Death … CRYPTA - Lord Of Ruins (Official Video) | Napalm Records. OFFICIAL WEBSITE. YOUTUBE (playthroughs & more) CRYPTA ON SPOTIFY. FOLLOW US ON INSTAGRAM. FACEBOOK. Create your Linktree. View cryptaofficial’s Linktree. Listen to their music on YouTube, Spotify here. Unite al canal para apoyar el contenido y acceder a sus beneficios:https://www.youtube.com/channel/UCaVbdN5VLUJDt1OI5FB2Ddg/joinSEGUÍ A SEASON OF MIST ENhttp...Crypta is an all-women death metal band from São Paulo, Brazil. The band, formed in 2019, includes former Nervosa singer Fernanda Lira and drummer Luana Dametto as well as guitarists Tainá Bergamaschi and Jéssica di Falchi. Signed to Napalm Records, Crypta’s 2021 debut album, ...Aug 10, 2023 · Crypta is a four-piece girl band that blends death metal with various subgenres and influences. Learn about their history, albums, and views on politics and music in this interview. 271K Followers, 6 Following, 881 Posts - See Instagram photos and videos from CRYPTA (@cryptadeath) Get all 3 Crypta releases available on Bandcamp and save 20%.. Includes unlimited streaming via the free Bandcamp app, plus high-quality downloads of Shades of Sorrow, I Resign, and Echoes Of The Soul., .Brazilian/Dutch death metal bandCRYPTAwill release its debut album,'Echoes Of The Soul', on June 11 viaNapalm Records. The album can be pre-ordered at this location. Formed in June 2019, the four-piece consists of vocalist and bassistFernanda LiraandLuana Damettoon drums (both former members of Brazilian thrash …Crypta returns with their highly anticipated second studio album, “Shades Of Sorrow,” following the success of their critically acclaimed debut, “Echoes Of The Soul.”. This time, the band introduces a lineup change, with former guitarist Sonia Anubis stepping out, making way for the talented new guitarist, Jéssica di Falchi.The group’s …Guitars for CRYPTA Instagram: @tainabmaschi Endorsed by Solar Guitars My band: Instagram: instagram.com/cryptadeath Facebook: facebook.com/cryptadeath Youtube ...Unite al canal para apoyar el contenido y acceder a sus beneficios:https://www.youtube.com/channel/UCaVbdN5VLUJDt1OI5FB2Ddg/joinSEGUÍ A SEASON OF MIST ENhttp...Order HERE. World-renowned Brazilian death metal unit CRYPTA are thrilled to announce their first ever US headlining tour! The “Shades Of Sorrow Over North America 2024” tour kicks off in San Juan, Puerto Rico on January 27, visiting several major cities along the central and western United States before coming to an end on March 2 in ...Crypta is a talented and ferocious new death metal band with thrash elements consisting of vocalist/bassist Fernanda Lira and drummer Luana Dametto (both ex-Nervosa) alongside guitarists Sonia Anubis (Cobra Spell, ex-Burning Witches) and Tainá Bergamaschi (ex-Hagbard).Few bands have set the underground world ablaze like Crypta, Brazil’s latest and perhaps soon to be, greatest, extreme metal export.Their stunning new album, Shades of Sorrow, dropped August 4 on Napalm Records and doesn’t just beat the dreaded sophomore slump, it annihilates the very concept.Everything that made their debut …CRYPTA's Fernanda Lira is taking you on a tour of the Family Mob Studio, where the band has spent the past weeks recording their debut album! Check out this ...Crypta Death Metal Fans - Unofficial Site. 14,764 likes · 8,178 talking about this. CommunityThe TL;DR of this review is definitely that if you’ve been sleeping on Crypta up until now because you think of them as just another throwback worship band, sleep no more. The band obviously have so much more than that to offer, and they’re truly showcasing it here. Crypta’s Shades of Sorrow is out today via Napalm Records.Guitars for CRYPTA Instagram: @tainabmaschi Endorsed by Solar Guitars My band: Instagram: instagram.com/cryptadeath Facebook: facebook.com/cryptadeath Youtube ... Death metal unit CRYPTA reveals new track “I Resign” + video and announces reissue of acclaimed debut album “Echoes Of The Soul” + bonus 7-inch of “I Resign”... Crypta is a Brazilian death metal band formed in São Paulo in 2019. The band consists of bassist-vocalist Fernanda Lira, drummer Luana Dametto, lead guitarist Jéssica di Falchi and rhythm guitarist Tainá Bergamaschi.“Echoes of the Soul” is the debut album from the Brazilian/Dutch Death Metal quartet CRYPTA, released on June 11th, 2021, through Napalm Records. ... (just like the band labels itself) albeit ...The bands performing are: Crypta / Nakkeknaekker / Plaguemace. When was the last Crypta concert? The last Crypta concert was on March 02, 2024 at El Corazon in Seattle, Washington, United States. The bands that performed were: Crypta / deathCAVE / Lacabra / Colony Drop / Muñeca. CRYPTA. 156,968 likes · 2,487 talking about this. 항햗햆햟햎햑햎햆햓 핯햊햆햙햍 핸햊햙햆햑 The band "Crypta" was the only group who performed that night before the storms came through. Falling debris killed a man who the band met before the show.Crypta is a Brazilian death metal band, founded in 2019, by Luana Dametto and Fernanda Lira, and officially announced in May 2020. On guitars, Tainá Bergamaschi and Jéssica di Falchi complete the current line-up. The four-piece is signed to Austrian label Napalm Records, through which their debut album “Echoes of the Soul” was released ...CRYPTA have managed to marry up old-school death metal brutality with modern melodic death metal and they have made it sound so organic. This band are about to explode. Watch this space. Rating: 9/10. Shades Of Sorrow is set for release on August 4th via Napalm Records. Like CRYPTA on Facebook.Brazilian death metal outfit Crypta have announced their first-ever U.S. headlining tour. The Shades Of Sorrow Over North America tour is scheduled to kick off … CRYPTA - Lord Of Ruins (Official Video) | Napalm Records. OFFICIAL WEBSITE. YOUTUBE (playthroughs & more) CRYPTA ON SPOTIFY. FOLLOW US ON INSTAGRAM. FACEBOOK. Create your Linktree. View cryptaofficial’s Linktree. Listen to their music on YouTube, Spotify here. text Eli Enis. June 10, 2021. Crypta have only been around for two years, but you wouldn't know it if you heard them. The Brazillian/Dutch quartet features former members of the Brazillian thrash titans Nervosa, vocalist/bassist Fernanda Lira and drummer Luana Dametto, as well as the formidable guitarists Sonia Anubis and Tainá Bergamaschi.Few bands have set the underground world ablaze like Crypta, Brazil’s latest and perhaps soon to be, greatest, extreme metal export.Their stunning new album, Shades of Sorrow, dropped August 4 on Napalm Records and doesn’t just beat the dreaded sophomore slump, it annihilates the very concept.Everything that made their debut …Brazilian death metal outfit Crypta smashed Wacken with old school tunes and an all female line up!Watch the full show at Magenta Musik: https://www.magentam...Recenze: CRYPTA – Echoes of the Soul /2021/ Napalm Records. Album má solidní odpich a energii, dostatek chytlavých nápadů a příjemné napětí, což jej s jistotou drží v bezpečné vzdálenosti od nevýrazné bažiny jednak beztvarého podprůměru, tak i lákavých svodů prefabrikovaného konzumu. !TOOH! Avidity For... Eradication ...May 20, 2020 · ~ CRYPTA // NEW BAND ANNOUNCEMENT ~ Born in June 2019, CRYPTA is a Brazilian/Dutch Death Metal four-piece, influenced... Posted by CRYPTA on Wednesday, May 20, 2020. Find more on Nervosa. Filename C:\darkbrides\Crypta - Shades of Sorrow.wav Peak level 96.5 % Extraction speed 7.5 X Range quality 100.0 % Test CRC 2874B29F Copy CRC 2874B29F Copy OK No errors occurred AccurateRip summary Track 1 cannot be verified as accurate (confidence 8) [FEF0D8D8], AccurateRip returned [25C4B7A8] (AR v2)Order "Echoes Of The Soul" here: https://smarturl.it/EchoesOfTheSoulout June 11th Singer and bassist Fernanda Lira says about the first single:"The song is b...Crypta (2) Mais imagens. Perfil: Brazilian death metal band formed in June 2019 by ex- Nervosa (2) musicians. Lineup: Fernanda Lira - bass, vocals. Tainá Bergamaschi - guitars. Jéssica di Falchi - guitars. Luana Dametto - drums.12/02/22 tem Scena Fest em SP. Ingressos:https://www.clubedoingresso.com/evento/scenafest**** Por favor, não faça o download indevido do vídeo. Ajude a forta...Released. 2016 — US. CD —. Album. Ardroth Jun 25, 2021. Purchased my copy from Bullmoose Music in the USA and I can confirm it is a green/blue CD-r in a standard jewelcase. The rest of the layout is nice, with a great lyric booklet, inner tray card, and printed top disc. Unfortunately it is not a pressed pro-grade silver disc, it is a ...A 1 minute preview of one of our songs - It’s just a demo and a homemade live quarantine styled video, but we thought it would be a nice appetiser, so you co...The past couple of years has definitely been quite the roller coaster ride for Fernanda Lira. After departing her former band Nervosa, she made her side project, Crypta, her new focus. The band would fully come together and record an album this past year. The band has now released their debut record, Echoes Of The Soul which has …Rockers Den Magazine channel presents 5 Questions with metal band Crypta. They answer fans' questions in this interview recorded during Wacken 2022 festival....CRYPTA have managed to marry up old-school death metal brutality with modern melodic death metal and they have made it sound so organic. This band are about to explode. Watch this space. Rating: 9/10. Shades Of Sorrow is set for release on August 4th via Napalm Records. Like CRYPTA on Facebook. Crypta. Four women from Brazil join forces in a death metal band that is highly influenced by the old school subgenres of this style: CRYPTA.Fernanda Lira (vocals & bass) and Luana Dametto (drums), both ex-members of Brazilian thrash metal band NERVOSA, Jéssica Falchi (lead guitars) who worked out her stage presence in METALLICA and IRON MAIDEN cover bands, and Tainá Bergamaschi (guitars ... Brazilian death metal outfit CRYPTA are preparing to unleash their second beast of an album, Shades of Sorrow, on August 4, 2023 via Napalm Records! Formed in 2019 by …. Rickey smiley morning, Amalie arena photos, Alabama furniture market, Awwu, Lopez auto repair, Cande shoes, Clinton auto group, Bear tooth movie theater, Virginia beach town center virginia beach va.